MEUS VIZINHOS SÃO UM TERROR (DUAL-ÁUDIO/720p) – 1989

THE ‘BURBS – 1989
COMÉDIA – MISTÉRIO – THRILLER
EUA
DIREÇÃO: Joe Dante
ROTEIRO: Dana Olsen
IMDb: 6,9
http://www.imdb.com/title/tt0096734/

DUBLAGEM CLÁSSICA – DUAL ÁUDIO – 720p

Postado por maroli2008

 


Formato: MKV
Qualidade: BRRip
Tamanho: 1,35 GB
Duração: 101 min
Legendas: Português (Selecionável)
Áudio: Português/Inglês
Servidor: Minhateca (dividido em 4 partes)
Uploader: maroli2008

MAIS INFORMAÇÕES DO ARQUIVO
General
Complete name : \\Q8200\o\Filmes\Full HD\Comédia\Meus Vizinhos São Um Terror – 1989 [dual áudio legendado]\Meus vizinhos são um terror (1989).720p.Bluray.mkv
Format : Matroska
Format version : Version 4 / Version 2
File size : 1.36 GiB
Duration : 1 h 41 min
Overall bit rate : 1 919 kb/s
Encoded date : UTC 2016-06-10 23:03:13
Writing application : mkvmerge v9.2.0 (‘Photograph’) 64bit
Writing library : libebml v1.3.3 + libmatroska v1.4.4
Video
ID : 1
Format : AVC
Format/Info : Advanced Video Codec
Format profile : High@L4.1
Format settings, CABAC : Yes
Format settings, ReFrames : 4 frames
Codec ID : V_MPEG4/ISO/AVC
Duration : 1 h 41 min
Bit rate : 1 500 kb/s
Width : 1 280 pixels
Height : 694 pixels
Display aspect ratio : 1.85:1
Frame rate mode : Constant
Frame rate : 23.976 (23976/1000) FPS
Color space : YUV
Chroma subsampling : 4:2:0
Bit depth : 8 bits
Scan type : Progressive
Bits/(Pixel*Frame) : 0.070
Stream size : 1.06 GiB (78%)
Writing library : x264 core 148 r2597M e86f3a1
Default : Yes
Forced : No
Audio #1
ID : 2
Format : AC-3
Format/Info : Audio Coding 3
Mode extension : CM (complete main)
Format settings, Endianness : Big
Codec ID : A_AC3
Duration : 1 h 41 min
Bit rate mode : Constant
Bit rate : 192 kb/s
Channel(s) : 2 channels
Channel positions : Front: L R
Sampling rate : 48.0 kHz
Frame rate : 31.250 FPS (1536 spf)
Compression mode : Lossy
Delay relative to video : 28 ms
Stream size : 139 MiB (10%)
Title : Dublagem Clássica – Herbert Richers
Language : Portuguese
Default : Yes
Forced : No
Audio #2
ID : 3
Format : AAC
Format/Info : Advanced Audio Codec
Format profile : LC
Codec ID : A_AAC
Duration : 1 h 41 min
Bit rate : 224 kb/s
Channel(s) : 2 channels
Channel positions : Front: L R
Sampling rate : 48.0 kHz
Frame rate : 46.875 FPS (1024 spf)
Compression mode : Lossy
Stream size : 163 MiB (12%)
Title : Original
Language : English
Default : No
Forced : No
Text
ID : 4
Format : UTF-8
Codec ID : S_TEXT/UTF8
Codec ID/Info : UTF-8 Plain Text
Duration : 1 h 35 min
Bit rate : 66 b/s
Count of elements : 1173
Stream size : 46.5 KiB (0%)
Title : Português br
Language : Portuguese
Default : Yes
Forced : No


FILME: MEUS VIZINHOS SÃO UM TERROR


A história se passa em um bairro tipicamente americano, quando os novos vizinhos mudam-se para a casa próxima de Ray Peterson (Tom Hanks) e ele nota algo de errado. Os novos moradores são realmente estranhos: ninguém nunca os vê, a casa deles é uma grande bagunça e durante a noite ouvem-se barulhos suspeitos vindo do porão. A única coisa que se chamam Klopeks. Até que um dia um velhinho da redondeza desaparece de repente e todos começam a suspeitar dos novos e estranhos vizinhos.






Um comentário para MEUS VIZINHOS SÃO UM TERROR (DUAL-ÁUDIO/720p) – 1989

PARTICIPE DA DISCUSSÃO, MAS ANTES DE COMENTAR CLIQUE AQUI E LEIA NOSSAS REGRAS DE COMENTÁRIOS. Saiba que todos os comentários são moderados, nós nos reservamos o direto de publicá-los ou não. É proibido divulgar endereço de sites, blogs, fóruns que não sejam de parceiros ou de colaboradores do Tela de Cinema. Nós não permitimos a publicação de links de arquivos nos comentários, para colaborar acesse o menu do blog e procure pela opção COLABORE CONOSCO, ou clique aqui. Nós não recomendamos a divulgação de emails nos comentários, faça isso por sua conta e próprio risco.